zero advertisement in site
plz bookmark our current domain - mkvSeries.one
Our domain is currently blocked in certain countries , In order to access our website you must use a VPN, here is a free vpn you can use (enable warp mode)
Click Here for VPN
For High Quality Collection Goto TiyaMovies.Com
0
BoredFineGoodAmazingExcellent
Loading...

The Fast And The Furious (2001) 1080p BluRay x264 Dual Audio [Hindi DD5.1 – English DD5.1] – Esub

Duration: 106 min

Release:

IMDb: 6.8

Dominic Toretto is a Los Angeles street racer suspected of masterminding a series of big-rig hijackings. When undercover cop Brian O’Conner infiltrates Toretto’s iconoclastic crew, he falls for Toretto’s sister and must choose a side: the gang or the LAPD.

 

The Fast And The Furious (2001) 1080p BluRay x264 Dual Audio [Hindi DD5.1 – English DD5.1] – Esub ~ Ranvijay

Format                                   : Matroska
Format version                           : Version 4 / Version 2
File size                                : 4.55 GiB
Duration                                 : 1 h 46 min
Overall bit rate                         : 6 098 kb/s
Movie name                               : The Fast And The Furious (2001) 1080p BluRay x264 Dual Audio [Hindi DD5.1 – English DD5.1] – Esub ~ Ranvijay

Video
ID                                       : 1
Format                                   : AVC
Format/Info                              : Advanced Video Codec
Duration                                 : 1 h 46 min
Bit rate                                 : 5 000 kb/s
Width                                    : 1 920 pixels
Height                                   : 816 pixels
Display aspect ratio                     : 2.35:1
Frame rate mode                          : Constant
Frame rate                               : 23.976 (24000/1001) FPS
Stream size                              : 3.73 GiB (82%)
Title                                    : ~Ranvijay~

Audio #1
ID                                       : 2
Format                                   : AC-3
Duration                                 : 1 h 46 min
Bit rate mode                            : Constant
Bit rate                                 : 640 kb/s
Channel(s)                               : 6 channels
Channel positions                        : Front: L C R, Side: L R, LFE
Title                                    : ~Ranvijay~
Language                                 : Hindi

Audio #2
ID                                       : 3
Format                                   : AC-3
Duration                                 : 1 h 46 min
Bit rate mode                            : Constant
Bit rate                                 : 448 kb/s
Channel(s)                               : 6 channels
Channel positions                        : Front: L C R, Side: L R, LFE
Title                                    : ~Ranvijay~
Language                                 : English

Text
ID                                       : 4
Format                                   : PGS
Stream size                              : 20.2 MiB (0%)
Title                                    : ~Ranvijay~
Language                                 : English

1080p 4.55GB

Comments

Leave a Reply

Your email address will not be published. Required fields are marked *